Bear City 2 The Proposal Streaming

Nakon legalizacije istospolnih brakova u New Yorku, Roger zaprosi svoga dečka Tylera i zajedno sa ekipom iz prvog dela, kreću na put u Provincetown, na godišnje okupljanje "mekanih meda" i njihovih "mečkica". Watch Pure: The Proposal from Season 2 at TVGuide. Download BearCity 2 The Proposal 2012 720p WEBRip x264-SECRETOS or any other file from Movies category. BearCity 2: The Proposal (2012) The continuing story of the breakout hit BearCity BearCity is a hirsute "Sex and the City," following the funny, romantic, and occasionally dramatic adventures of a group of bears and cubs in New York City. (WSYR-TV) — The Onondaga County Industrial Development Agency took a big step forward Thursday morning in the proposal to build a warehouse and distribution center on Morgan Road in. Sledujte filmy a seriály online v HD kvalitě. Gledaj BearCity 2: The Proposal online sa prevodom, Gledaj BearCity 2: The Proposal u HD formatu online sa prevodom, BearCity 2: The Proposal sa prevodom. Watch Pure - Season 2 Episode 4 - The Proposal Full Episode with English subbed. This second movie in the BearCity trilogy is a very good film. Get your swag on with discounted movies to stream at home, exclusive movie gear, access to advanced screenings and discounts galore. BearCity 2: The Proposal is a movie starring Joe Conti, Gerald McCullouch, and Stephen Lambeth. BearCity, Harris, New York. Before Brandon pops the question to his girlfriend Anne, they need Reza and Taylor's help on where to live, either in his small town community of Moorpark, or Anne's Westlake Village abode. But I promise you it’s not worth it. I haven't seen Bear City 2: The Proposal yet, but I expect it will be just as good. BearCity is a hirsute Sex and the City, following the funny, romantic, and occasionally dramatic adventures of a group of bears and cubs in New York City. Bear City 2 - The Proposal Il successo di pubblico del primo "Bear City" del 2010 ha permesso al regista Douglas Langway di girarne un sequel, facilitato dal fatto che ha potuto riutilizzare parte del cast precedente ed ha avuto a disposizione un budget maggiore. BearCity 2: The Proposal. El asombroso presupuesto de la película con ingresos y lanzado en, BearCity 2: The Proposal es el tipo de película que te llevará a un alto de emociones con su actuación espectacular y actuación increíble. All structured data from the main, Property, Lexeme, and EntitySchema namespaces is available under the Creative Commons CC0 License; text in the other namespaces is available under the Creative Commons Attribution-ShareAlike License; additional terms may apply. Tonight's a big night for Josh Bullock. Ciò che sembra impossibile fino a poco tempo fa è ora auspicabile da fonti ufficiali. Si tienes dudas sobre si ver BearCity 2: The Proposal LocoPelis , ahora mismo te contamos algunos datos sobre esta gran película que te interesa Si lo que buscas BearCity 2: The Proposal online sin pagar te vamos a proporcionar información que destaca sobre la peli que quizás quieras ver. Where can i watch "the proposal" movie online? i am looking for a website where i can watch the june 2009 movie "the proposal" for free without downloading it. Bear City 2: The Proposal accomplishes most of this, but in varying degrees. Využívá však mé vlídnosti k medvědům, kterých tam předvádí hordy. The sequel, BearCity 2 follows our familiar characters and a few new ones as they head to Provincetown, MA for Bear Week!. Get ready to have tears streaming down your face (surely it's not just us who bawls at proposal videos?!) because this adorable video clip is by far the sweetest thing you'll see all day. The Proposal Movie Review This site uses cookies and other tracking technologies to administer and improve your experience on our site, to help diagnose and troubleshoot potential server malfunctions, and to gather use and demographic information. "Медвежий город 2" - сиквел, в котором вы сможете увидеть всех персонажей первого фильма, а также парочку новых. The Proposal: Sandra Bullock, Ryan Reynolds, Malin Akerman, Craig T. , the candidate released a detailed, sweeping proposal to legalize. Big Bear Vacations: 1857 - Mountain Paradise in Sugarloaf Area. Bear City 2: The Proposal by Chris Packham. Upon his death in 1988, much of his work was locked away in a Swiss bunker, hidden from the world’s view. For more information, or to get involved, please visit the project page or contribute to the discussion. Oh, it has its moments: the presentation of the ring inside of a goateed Fleshlight, jokes about. You will be able to Watch BearCity 2: The Proposal 2013 Full Movie Online Streaming in secure and without any restrictions. Grant writing webinars were held for those interested in applying for Farmer/Rancher grant, Professional + Producer grant, Professional Development grant, and/or Research to Grassroots grant. BearCity 2: The Proposal (2012) Stream and Watch Online Roger and Tyler are about to get married, so their friends take them to Provincetown for a bear-week bachelor party. I watch The Bachelor/Bachelorette, but they at least meet and spend time with their suitors. The conductor tries to give Baek-ho a chance to forget about Yi-seul, but his love is too strong. Browse the list of episode titles to find summary recap you need to get caught up. the proposal türkçe dublaj izle, the proposal türkçe altyazı izle, the proposal filmini altyazılı izle, the proposal tr altyazılı izle, the proposal türkçe altyazılı izle, the proposal altyazı izle, the proposal altyazılı izle hd, bear city 2 izle türkçe, BearCity 2: The Proposal 2012 Türkçe Altyazılı İzle,. Create beautiful proposals, streamline them in the cloud, and get faster sign-off with online signatures. TWITTER Provincetown's Bear Week is the colorful setting for this gay romantic comedy. BearCity 2: The Proposal, is a romp full of fur, fun and family as the bears realize that marriage is much more than just the freedom to say "I do. Find high-quality Outfest Bearcity 2 The Proposal Premiere stock photos and editorial news pictures from Getty Images. Watch Pure: The Proposal from Season 2 at TVGuide. Skvělé filmy; Posted in 2012, Komedie BearCity 2: The Proposal. Please try again later. Regardez un film en ligne ou regardez les meilleures vidéos HD 1080p gratuites sur votre ordinateur de bureau, ordinateur portable, bloc-notes, onglet, iPhone, iPad, Mac Pro et plus. vc è gli più bisognosi portale di elaboratore in Montenegro. Apr 11, 2013- Explore bearcitymovies's board "BearCity & BearCity 2 The Movies" on Pinterest. Regardez BearCity 2: The Proposal Streaming Hd en 113 minutes. 4 2012 110 min 10366 Visualizações A saga de Tyler (Joe Conti) e Roger (Gerald McCullouch) continua, mas agora num cenário praiano e cercado de uma cota dobrada de ursos: a Bear. The sequel, BearCity 2 follows our familiar characters and a few new ones as they head to Provincetown, MA for Bear Week!. Mohly by vás také zajímat… BearCity 3 ; BearCity. The Proposal - Show News, Reviews, Recaps and Photos. Využívá však mé vlídnosti k medvědům, kterých tam předvádí hordy. Get credits and details for BearCity 2: The Proposal at Metacritic. Смешные, романтичные, а порой и драматичные приключения группы медведей и медвежат в Нью-Йорке. BearCity is a hirsute "Sex and the City," following the funny, romantic, and occasionally dramatic adventures of a group of bears and cubs in New York City. Медвежий город 2: Предложение / BearCity 2: The Proposal (2012) (Eng) you will watch movies and series of any genres and themes. Sign up to get started. This page was last edited on 10 May 2019, at 07:37. I was invited to the premier of Bear City 2: The Proposal on Friday. Free watching The Proposal - 2019, download The Proposal - 2019, watch The Proposal - 2019 with HD streaming. The sequel, BearCity 2 follows our familiar characters and a few new ones as they head to Provincetown, MA for Bear Week!. Watch full episode of The Proposal season 1 episode 02, read episode recap, view photos and more. The Proposal, alternative title of Chekhov's 1890 play A Marriage Proposal; Television. Oh, it has its moments: the presentation of the ring inside of a goateed Fleshlight, jokes about. Comedy Central 1,832,746 views. Nonton film The Proposal (2009) streaming dan download movie subtitle indonesia kualitas HD gratis terlengkap dan terbaru. Bear City 2: The Proposal - Un film di Douglas Langway. The premise of the film sees Roger and Tyler heading to New York City to become legally married and in time to enjoy its Bear Week festival. The friends head to the beach for New Year's Eve. All type of latest tv shows are available on Fmovies. Miramiento ver BearCity 2: The Proposal 2012Peliculas Completas!. BearCity 2: The Proposal (2012) online sa prevodom. Without commercial breaks, the full movie BearCity 2: The Proposal has a duration of 110 minutes; the official trailer can be streamed on the Internet. You can also buy, rent Pure on demand at Hulu online. Watch What Happens Live with Andy Cohen Jax Taylor reveals his proposal plans to the Toms. Guardare BearCity 2: The Proposal Streaming ITA X-uFlight. The sequel, BearCity 2 follows our familiar characters and a few new ones as they head to Provincetown, MA for Bear Week!. Watch The Proposal 2009 Online Free, part 2/13, full. BearCity 2: The Proposal, is a romp full of fur, fun and family as the bears realize that marriage is much more than just the freedom to say "I do. 欲望熊市2:求婚记 介绍、图片及影评 欲望熊市2:求婚记. Verenigde Staten Komedie 101 minuten geregisseerd door Douglas Langway met Gerald McCullouch, Joe Conti en Stephen Guarino. Fanklub - BearCity 2: The Proposal (0) Stát se fanouškem Opustit fanklub. thanks! Follow. All structured data from the main, Property, Lexeme, and EntitySchema namespaces is available under the Creative Commons CC0 License; text in the other namespaces is available under the Creative Commons Attribution-ShareAlike License; additional terms may apply. Where the first movie seemed to go out of its way to beat you over the head with the setting (here is a. Ohne Werbeunterbrechungen hat der BearCity 2: The Proposal Stream eine Dauer von 110 Minuten. BearCity 2: The Proposal is a movie starring Joe Conti, Gerald McCullouch, and Stephen Lambeth. 2010's Bear City was a pleasant diversion from the usual queer faire. Watch The Proposal - 2019 in HD quality online for free, putlocker The Proposal - 2019, 123movies ,xmovies8 ,fmovies The Proposal - 2019. Since the announcement of the free streaming of the movie, a high number of visitors have come to movies to watch the movie in high-quality. No te pierdas a Reloj BearCity 2: The Proposal (2012) Película Full HD. The Proposal 2009 13+ 1h 48m Romantic Comedies When an overbearing book editor learns she's in danger of losing her visa status and may be deported, she forces her put-upon assistant to marry her. Uncle Sam wants to watch. BearCity is a hirsute "Sex and the City," following the funny, romantic, and occasionally dramatic adventures of a group of bears and cubs in New York City Server 3 Server 1 Alternate Servers Trailer Related Movies. "I'm really proud of the film," McCullouch said in an email interview with Greg In. Su With English Subtitles. Se encuentra buscando para ver películas de BearCity 2: The Proposal películas en streaming gratis?. BearCity 2: The Proposal – Wikipedia. The Proposal 6. Watch Out Top 5 Upcoming Trends in the Proposal Consulting and Management Industry December 20, 2017 by Mohit Industry experts have already forecasted a wide range of disruptive proposal consulting and management trends for 2018 and beyond that are sure to bring a significant shift in the industry in the USA and the UK. The Proposal Full Movie 2009 English Subtitles part 1/2. BearCity 2: The Proposal 2012 | 113 min. The World (feat. Con Kathy Najimy, Kevin Smith, Richard Riehle, Gerald McCullouch, Stephen Guarino. Gay Essential Films To Watch, BearCity 2: The Proposal. BearCity 2: The Proposal (2012) online sa prevodom Nakon legalizacije istospolnih brakova u New Yorku, Roger zaprosi svoga dečka Tylera i zajedno sa ekipom iz prvog dela, kreću na put u Provincetown, na godišnje okupljanje “mekanih meda” i njihovih “mečkica”. Abbiamo raccolto da molte fonti legali di film di alta qualità, limonate, che in realtà hanno a guardare qualsiasi sito Web su Internet per guidare film veramente buono. Twinkish Tyler and Daddybear Roger are boyfriends, living in Roger's very plush penthouse in New York City's trendy West Chelsea neighborhood. Yes, but I don't think I'll be watching this again. Search Torrents | Browse Torrents | Recent Torrents | TV shows | Music | Top 100. Cleopatra’s Little Sister vs. Kathy Najimy plays den mother to the returning cast of bears, boys and cubs, for a Bear Week bachelor party in Provincetown!. Watch The Proposal - 2019 Free movie The Proposal - 2019 with English Subtitles. Sein offizieller Trailer ist im Internet zu sehen. Медвежий город 2: Предложение / BearCity 2: The Proposal (2012) (Eng) you will watch movies and series of any genres and themes. BearCity 2: The Proposal est un film (1h 53min) de Douglas Langway avec Kevin Smith, Kathy Najimy, Richard Riehle. Total Bellas Season 2 First Look! Watch as Brie Prepares to Give Birth and Nikki Gets the Proposal of a Lifetime Watch as Brie Prepares to Give Birth and Nikki Gets the Proposal of a Lifetime By. A nearly 10-acre site off Bardstown Road in Southeast Louisville would be home to more than 100 townhomes under a new proposal. BearCity is a hirsute "Sex and the City," following the funny, romantic, and occasionally dramatic adventures of a group of bears and cubs in New York City. Click here and start watching the full episode in seconds. Now you can download full The Proposal in top video format. BearCity 2: The Proposal (2012) op MovieMeter. PROPOSAL PACKAGE Accelerate proposal & guide [zip] Intern CV (interns may use Mitacs's optional template [doc]) Please be sure to include supporting documents as required by your university or province. The sequel, BearCity 2 follows our familiar characters and a few new ones as they head to Provincetown, MA for Bear Week!. 2 days ago · MIDDLE TOWNSHIP — A proposal to build a $16 million hotel just off the Garden State Parkway got a big boost with the introduction of an ordinance rezoning the property Watch this discussion. 0 stars based on 35 reviews File size : 898 MegaByte BearCity 2: The Proposal Film complet 2012. BearCity est un hirsute "Sex and the City" à la suite de l'humour, romantique, et parfois dramatiques aventures d'un groupe d'ours et oursons dans la Ville de New York. The New York Rangers tied the game 2-2 with their goalie pulled and only 6. BearCity 2: The Proposal (2012) Roger and Tyler are about to get married, so their friends take them to Provincetown for a bear-week bachelor party. Then there's a cooking montage filmed in honest-to-god Benny Hill speed cam, and you pretty much realize that director Douglas Langway's Bear City 2: The Proposal isn't going to challenge rom-com orthodoxy or cleverly subvert it or even elevate it. Please try again later. mkv fast and secure. 875 FPS (1024 SPF) Compression mode : Lossy Stream size : 181 MiB (8%). Odpowiada angielski ekspert. The Proposal (2019) Synopsis Known as “the artist among architects,” Luis Barragán is among the world’s most celebrated architects of the 20th century. I saw the first film and thought it was cute, but this one was okay, riddled with TGM (Typical Gay Movies) trappings. "Медвежий город 2" - сиквел, в котором вы сможете увидеть всех персонажей первого фильма, а также парочку новых. BearCity is a hirsute "Sex and the City," following the funny, romantic, and occasionally dramatic adventures of a group of bears and cubs in New York City. The Proposal 2 Trailer 2018 - FANMADE HD. Sequel-ul filmului BearCity, apărut în 2010, continuă aventurile celor 3 cupluri de homosexuali din primul film. In most cases, email the individual with a brief message introducing yourself and your project. Tanya gets a surprise marriage proposal from her boyfriend Mikesh, after being in a 3-year long distance relationship. watch The Proposal on 123movies: For three years, Andrew Paxton has slaved as the assistant to Margaret Tate, hard-driving editor at a New York publisher. 按喜欢排序 · 按尺寸排序 · 按时间排序. BearCity 2: The Proposal (2012). Hasło: for - Znaleziono 2000 wyników: [2] Czy we wspolczesnym jezyku angielskim dozwolone jest UPRAWA PSZENICY OZIMEJ PO SOBIE Z ZASTOSOWANIEM: Progress in Plant Protection / Postępy w Ochronie Roślin, 46 (2) 2006 UPRAWA PSZENICY. Feature Film + 4K Download (Purchase Only) + Behind The Scenes + Director's Commentary with Cast and Producers + Subtitles: English (CC), Spanish (CA & MX), Portuguese, Italian, German, French. Comedy, Drama, Romance, USA, Fictitious. To share this torrent inserting the provided BBCode into comments, status messages, forum posts or your signature. Mohly by vás také zajímat… BearCity 3 ; BearCity. Olympia, WA 98501. Deși la început nu e sigur că e pregătit să se căsătorească, în final acceptă, astfel că cei doi, împreună cu prietenii lor, plecă la New York. Regarder BearCity 2: The Proposal en streaming gratuitement sur Regarder-Films. - Wallpaper Abyss. All type of latest tv shows are available on Fmovies. No te pierdas a Reloj BearCity 2: The Proposal (2012) Película Full HD. BearCity is a hirsute “Sex and the City,” following the funny, romantic, and occasionally dramatic adventures of a group of bears and cubs in New York City. Hanya di INDOXXI kalian bisa nonton berbagai macam film berkualitas dengan mudah dan gratis tanpa harus registrasi, kami menyediakan berbagai macam film baru maupun klasik bagi para pencinta film box office subtitle indonesia secara lengkap dengan kualitas terbaik. The Proposal. " Written by The BearCity Team Plot Summary | Add Synopsis. Přiveďte sem své přátele a vydělejte si peníze! Dozvědět se více. org 2012 BearCity 2 The Proposal (USA. BearCity 2: The Proposal (2012) MovieInfo. All structured data from the main, Property, Lexeme, and EntitySchema namespaces is available under the Creative Commons CC0 License; text in the other namespaces is available under the Creative Commons Attribution-ShareAlike License; additional terms may apply. BearCity 2: The Proposal lanzado en los cines el 2012-06-11. Bear City 2: The Proposal. " -- (C) Official Site Rating:. Abbiamo raccolto da molte fonti legali di film di alta qualità, limonate, che in realtà hanno a guardare qualsiasi sito Web su Internet per guidare film veramente buono. Version Francaise en HD. "BearCity 2" is the continuing journey of a tight-knit pack of bears, boys and cubs in the New York City Bear scene. Kathy Najimy plays den mother to the returning cast of bears, boys and cubs, for a Bear Week bachelor party in Provincetown!. In losing they got a glimpse of the greatness of a player who could be wearing Ranger blue next season. Where the first movie seemed to go out of its way to beat you over the head with the setting (here is a. O filme conta a artigo de uma rato divertido que desencadeou em uma jornada barata a detectar a governo desamparado de Suíço. “I went behind all your backs and secured the girl. Download BearCity 2 The Proposal 2012 720p WEBRip x264-SECRETOS or any other file from Movies category. That original was split between charms and minuses, suffering primarily from careless scripting. BearCity 2: The Proposal diffuser des films avec sous-titre français gratuitement. "I'm really proud of the film," McCullouch said in an email interview with Greg In. The Proposal (2019) Synopsis Known as “the artist among architects,” Luis Barragán is among the world’s most celebrated architects of the 20th century. mp4 Format : 720p DVDRip Langue : Français - Anglais Sujet :. Before she can start protesting about it, Mikesh reveals his own master-plan. There are only a few minutes spent in NYC setting up the plot and then they are off to Provincetown. BearCity is a hirsute "Sex and the City," following the funny, romantic, and occasionally dramatic adventures of a group of bears and cubs in New York City. staň se prvním fanouškem. Sein offizieller Trailer ist im Internet zu sehen. It will premiere at Outfest in the coveted Friday night slot at the Ford Ampitheatre. BearCity 2: The Proposal is a movie starring Joe Conti, Gerald McCullouch, and Stephen Lambeth. Reloj Streaming BearCity 2: The Proposal [2012-06-11] Las películas en línea completa incluyendo la Serie Remolques y clips de la serie, que puede reloj a través TheVideo, Openload, Estream, Vidto, Playedto, Vodlocker, Hulu y otra fuente. Watch Live or Archived TVW Events TVW web services made possible by: SiteCrafting Invintus Media Inc. Direct download via magnet link. SPOILER ALERT: You must watch Bear City before you watch Bear City 2!!!!! (Note: a kiss from Bear City is now on YouTube) I love the movie Bear City, and recognized that a sequel would be created. The crew pulls off a once-in-a-lifetime surprise dinner for the primary guests, but Kevin is left with doubts about Kate's standard of service. The city is on the verge of signing a development agreement with a nonprofit organization that is designed to transform the former Aiea sugar mill site into an affordable rental housing complex. Feature Film + 4K Download (Purchase Only) + Behind The Scenes + Director's Commentary with Cast and Producers + Subtitles: English (CC), Spanish (CA & MX), Portuguese, Italian, German, French. Su datos tener cinco mil de lavavajillas desatado suspenso en su ipad y se confunde, como Cara a la Muerte (1961), El Mar Eterno (1962) y muchos otros. Stránka s informacemi o gay, lesbických a trans filmech všetně titulků ke stažení. With Joe Conti, Gerald McCullouch, Stephen Lambeth, Chuck Southworth. BearCity 2: The Proposal é um filme árabe e etíope de 1978, dos gêneros crime e mitologia, dirigido até Emmie Huey, escrito por Fateh Olaoluwa, produzido por Ferne Pranav e distribuído pela Panorama J-Organisation. Ustedes ha venido al lugar correcto. Bear City 2: The Proposal accomplishes most of this, but in varying degrees. thanks! Follow. Titulky k BearCity 2: The Proposal ke stažení zdarma z Titulky. Con Kathy Najimy, Kevin Smith, Richard Riehle, Gerald McCullouch, Stephen Guarino. Aaron Maher and Fiona Robertson flew all the way from Dubai to catch U2 in Croke Park, which is a fairly deadly night in itself. " Skip to main content In 2010 BearCity took the film festival circuit by storm and caught the independent film community heart by depicting a group of characters affectionately known as "The Bears. Those who cannot afford to watch the latest releases in the theaters visit movies to stream movies for free. Kathy Najimy plays den mother to the returning cast of bears, boys and cubs, for a Bear Week bachelor party in Provincetown!. Family can be hairy as Brent (Stephen Guarino) and Fred (Brian Keane) prepare for fatherhood. A public hearing on the proposal is set for Nov. BearCity 2: The Proposal (2012) Film Online Subtitrat in Romna – Roger Beam (Gerald McCullouch) îi propune lui Tyler Hall (Joe Conti) să-și legalizeze relația la New York. Students help teacher's boyfriend pull off surprise proposal By Karishma Sarkari | 2 months ago Students at a school in Wilmington, Delaware have helped pull off a surprise proposal for their teacher. BearCity 2: The Proposal is a movie starring Joe Conti, Gerald McCullouch, and Stephen Lambeth. Kathy Najimy plays den mother to the returning cast of bears, boys and cubs, for a Bear Week bachelor party in Provincetown!. Home; News; Add Your ICO Listing; About; Current ICO’s; Ended ICO’s; Upcoming ICO’s; Watch List. 2012 film by Doug Langway. film BearCity 2: The Proposal streaming vf,BearCity 2: The Proposal streaming dvdrip, regarder BearCity 2: The Proposal gratuitement, BearCity 2: The Proposal VK streaming, BearCity 2: The Proposal filmze gratuit, BearCity 2: The Proposal film complet, BearCity 2: The Proposal mega. With a 100% rating on Rotten Tomatoes Paddington 2 has followed in the paw steps of the first film (2014) to be another worldwide hit. The sequel, BearCity 2 follows our familiar characters and a few new ones as they head to Provincetown, MA for Bear Week! 欲望熊市2 求婚记 BearCity 2: The Proposal在线观看:. The sequel, BearCity 2 follows our familiar characters and a few new ones as they head to. It's a funny thing about that. I saw the first film and thought it was cute, but this one was okay, riddled with TGM (Typical Gay Movies) trappings. Now you can download full The Proposal in top video format. Watch The Proposal Full Movie Online The Proposal Full Movie Streaming Online in HD-720p Video Quality Download The Proposal Full Movie Where to Download The Proposal Full Movie ? Watch The Proposal Full Movie Watch The Proposal Full Movie Online Watch The Proposal Full Movie HD 1080p. Liste visant à répertorier tous les longs-métrages ayant moins de 5 notes pour le moment, de l'antiquité poussiéreuse au bide. ’ Jewell comments come one. BearCity 2: The Proposal Trailer BearCity is a hirsute "Sex and the City," following the funny, romantic, and occasionally dramatic adventures of a group of bears and cubs in New York City. It was so good to see my favorite Bears again and how they had grown and changed with the trials life sent to them. BearCity 2: The Proposal, filme completo - " Bear City 2" continua a ser, como o primeiro da série, uma vitrine do ambiente ? Tenha a cidade de Nova York e do grupo de amigos que conhecemos. Here's how to watch The Proposal season 1, episode 1 live, on TV and online. An unintended consequence of the current unrest in Hong Kong has been to derail Xi Jinping’s proposal to use the “one country, two. When Margaret, a Canadian, faces deportation for an expired visa, she hatches a scheme to marry Andrew - he agrees if she'll promise a promotion. BearCity is a hirsute "Sex and the City," following the funny, romantic, and occasionally dramatic adventures of a group of bears and cubs in New York City. ’ Jewell comments come one. Il augmente sa base de données de films très rapide, Vous peux parcourir des films par catégories ou par année production. Hasło: for - Znaleziono 2000 wyników: [2] Czy we wspolczesnym jezyku angielskim dozwolone jest UPRAWA PSZENICY OZIMEJ PO SOBIE Z ZASTOSOWANIEM: Progress in Plant Protection / Postępy w Ochronie Roślin, 46 (2) 2006 UPRAWA PSZENICY. The sequel, BearCity 2 follow our familiar characters and a few new ones as they head to Provincetown, MA for Bear Week! Video ID : 1. Guardare BearCity 2: The Proposal Online (2012) - Film italiano, vedere informazioni sul film completo online, streaming ita, trailer, sottotitoli e audio originale. The Proposal: Watch the first two minutes of ABC's new 'soulmate pageant' this link is to an external site that may or may not meet accessibility guidelines. Marriage Is More Than Just The Freedom To Say 'I DO'. Miramiento ver BearCity 2: The Proposal 2012Peliculas Completas!. In BearCity 2: The Proposal the original cast from BearCity is reunited for the next chapter of their story. staň se prvním fanouškem. The sequel, BearCity 2 follows our familiar characters and a few new ones as they head to Provincetown, MA for Bear Week!. Oh, it has its moments: the presentation of the ring inside of a goateed Fleshlight, jokes about. The Proposal 2009 watch online in HD on Solarmovie website! Totally Free High quality No Sign Up The Proposal 2009 Watch Full Movie in HD - SolarMovie HOME. "BearCity 2 - The Proposal" registra o casamento dos respectivos personagens que são tão opostos e difíceis de formarem química, por causa dos inúmeros contrastes. There are only a few minutes spent in NYC setting up the plot and then they are off to Provincetown. Torrent: BearCity 2 The Proposal 2012 1080p WEB x264 SECRETOS. Now you can download full The Proposal in top video format. Comedy Central 1,832,746 views. " Kathy Najimy plays den mother to the returning cast of bears, boys and cubs, for a Bear Week bachelor party in Provincetown!. The sequel, BearCity 2 follows our familiar characters and a few new ones as they head to Provincetown, MA for Bear Week!. Verenigde Staten Komedie 101 minuten geregisseerd door Douglas Langway met Gerald McCullouch, Joe Conti en Stephen Guarino. 98GB 本站所有资源均收集自互联网,没有提供影片资源存储,也未参与录制、上传 若本站收录的资源无意侵犯了您的权益 请联系:billokyes#gmail. BearCity 2: The Proposal (2012) MovieInfo. ABC has made a last-minute episode change, so that means. org 2012 BearCity 2 The Proposal (USA. "The Proposal" is a movie about a couple who start out hating each other and end up liking each other. BearCity is a hirsute “Sex and the City,” following the funny, romantic, and occasionally dramatic adventures of a group of bears and cubs in New York City. BearCity 2: The Proposal - An engaged gay couple and their friends head down to Bear Week in Provincetown, MA and try to resist. This feature is not available right now. Start your free trial to watch Keeping Up With the Kardashians and other popular TV shows and movies including new releases, classics, Hulu Originals, and more. Faced with deportation to her native Canada, high-powered book editor Margaret Tate (Sandra Bullock) says she's engaged to marry Andrew Paxton (Ryan Reynolds), her hapless assistant. Tornano i personaggi della prima avventura, con i loro tic, i loro amori e le loro sagome corpulente e pelose. x264-secretos. Right on Mallard Lagoon, part of Big Bear Lake, this cabin rental has a private dock and is the perfect mixture of rustic and modern comfort. O filme conta a artigo de uma rato divertido que desencadeou em uma jornada barata a detectar a governo desamparado de Suíço. Advertisement Magid has made a film that’s cool, assured, and understated. New yorkta geçen Bearcity filmi Sex and the City tarzında komik ve eğlenceli bir filmdir. BearCity 2: The Proposal is a movie starring Joe Conti, Gerald McCullouch, and Stephen Lambeth. 30pm, you can also watch on 7plus. Buy, Rent or Watch The Proposal and other Movies + TV Shows online. Fanklub - BearCity 2: The Proposal (0) Stát se fanouškem Opustit fanklub. This Film Released N/A on Theater. By signing out, some episodes will become unavailable to watch until you sign back in. BearCity 2: The Proposal, is a romp full of fur, fun and family as the bears realize that marriage is much more than just the freedom to say "I do. U mě to ty šelmy vydráply z odpadu až na slabší 2 hvězdičky. F - Friends - Season 6 Episode 25 - The One With the Proposal (2) The big evening has arrived, but Chandler’s romantic plans are ruined when Monica’s ex-boyfriend appears. and avoid deportation to Canada. " BUY DVD or Blu-ray Now! Stream or Download Now!. film BearCity 2: The Proposal streaming vf,BearCity 2: The Proposal streaming dvdrip, regarder BearCity 2: The Proposal gratuitement, BearCity 2: The Proposal VK streaming, BearCity 2: The Proposal filmze gratuit, BearCity 2: The Proposal film complet, BearCity 2: The Proposal mega. The Proposal Full Movie 2009 English Subtitles. Visions of daylighting Boone Creek along Rivers Street are progressing into plans, and Appalachian State University, town of Boone and New River Conservancy representatives say the project could alleviate frequent flooding in the area. Bear City 2: The Proposal. The nature of that proposal is the documentary’s big reveal, so nothing further on that subject will be offered here. " Bonus Features Kathy Najimy On Chelsea!. ET/PT, after The Bachelorette. Sans limite, le film complet BearCity 2: The Proposal a une longueur approximative de 110 minutes. 1 BearCity 2: The Proposal Imágenes de Fondo y Fondos de Pantalla HD. and avoid deportation to Canada. "BearCity 2: The Proposal" is the 2012 sequel to 2010's "BearCity," a dramedy film with a focus on the "bear" lifestyle of homosexual men. I haven't seen Bear City 2: The Proposal yet, but I expect it will be just as good. Roger îi propune lui Tyler să-și legalizeze relația la New York. Fri, Sep 29, 2017, 8:30 PM: The description of the event, DIVE IN MOVIE PARTY, FEATURING BearCity 2: The Proposal, is available only to members. Cependant, il est impossible d'évaluer bon ou mauvais avant, mais la recherche BearCity 2: The Proposal. Tenha a cidade de Nova York e do grupo de amigos que conhecemos. Guarda i film BearCity 2: The Proposal (2012) Delicious online. PROPOSAL PACKAGE Accelerate proposal & guide [zip] Intern CV (interns may use Mitacs's optional template [doc]) Please be sure to include supporting documents as required by your university or province. Il successo di pubblico del primo “Bear City” del 2010 ha permesso al regista Douglas Langway di girarne un sequel, facilitato dal fatto che ha potuto riutilizzare parte del cast precedente ed ha avuto a disposizione un budget maggiore. The sequel, BearCity 2 follows our familiar characters and a few new ones as they head to Provincetown, MA for Bear Week!. Jedná se o sequel filmu BearCity, který zachycuje stejné postavy po dvou letech. This is a bit TOO unbelievable for me. BearCity is a hirsute "Sex and the City," following the funny, romantic, and occasionally dramatic adventures of a group of bears and cubs in New York City. Children often behave differently after they’ve been watching violent programs on TV. Медвежий город 2: Предложение / BearCity 2: The Proposal (2012) (Eng) you will watch movies and series of any genres and themes. - Wallpaper Abyss. After the proposal, announce the good news by sending the link to family and friends. Upon his death in 1988, much of his work was locked away in a Swiss bunker, hidden from the world’s view. It was so good to see my favorite Bears again and how they had grown and changed with the trials life sent to them. Genere: Comédie, Romance. BearCity 2: The Proposal (2012) MovieInfo. BearCity 2: The Proposal – Wikipedia. The sequel, BearCity 2 fol Filme und Serien s. 875 FPS (1024 SPF) Compression mode : Lossy Stream size : 181 MiB (8%). BearCity 2: The Proposal, is a romp full of fur, fun and family as the bears realize that marriage is much more than just the freedom to say "I do. Update a social media profile (like Instagram) with "fiance" in your bio. Il successo di pubblico del primo “Bear City” del 2010 ha permesso al regista Douglas Langway di girarne un sequel, facilitato dal fatto che ha potuto riutilizzare parte del cast precedente ed ha avuto a disposizione un budget maggiore. KBHR - Big Bear City, CA - Listen to free internet radio, sports, music, news, talk and podcasts. 110 制作公司: BearCity Limits II. Ciò che sembra impossibile fino a poco tempo fa è ora auspicabile da fonti ufficiali. In addition to the major characters from the original BearCity , additions to the cast include Richard Riehle and Susie Mosher as Tyler's parents, and. It was so good to see my favorite Bears again and how they had grown and changed with the trials life sent to them. Now you can download full The Proposal in top video format. Regarder BearCity 2: The Proposal en streaming gratuitement sur Regarder-Films. Bringing life to not only the LGBT community but showcasing the Bear community as a whole and its diversity makes this is a must see independent film in 2012. x264-ION10 bt种子下载,磁力链接,迅雷下载. Descargar la totalidad de los que te gusta y verlos en su ordenador. said Friday that it had made a “preliminary proposal” to Match Group Inc. The crew pulls off a once-in-a-lifetime surprise dinner for the primary guests, but Kevin is left with doubts about Kate’s standard of service. "Медвежий город 2" - сиквел, в котором вы сможете увидеть всех персонажей первого фильма, а также парочку новых. BearCity is a hirsute "Sex and the City," following the funny, romantic, and occasionally dramatic adventures of a group of bears and cubs in New York City Server 3 Server 1 Alternate Servers Trailer Related Movies. Enjoying a blossoming relationship at a time when New York State is legalizing gay marriage, Roger decides to take the next step in his relationship. The sequel, BearCity 2 follows our familiar characters and a few new ones as they head to Provincetown, MA for Bear Week! OnLine Here. دانلود مستقیم و رایگان فیلم BearCity 2: The Proposal 2012 به همراه زیرنویس فارسی BearCity 2: The Proposal 2012 بیرستی تو د پراپوزال از رسانه هیوا Hiva. BearCity is a hirsute "Sex and the City," following the funny, romantic, and occasionally dramatic adventures of a group of bears and cubs in New York City. " Kathy Najimy plays den mother to the returning cast of bears, boys and cubs, for a Bear Week bachelor party in Provincetown!. BearCity 2: The Proposal (2012) online sa prevodom Nakon legalizacije istospolnih brakova u New Yorku, Roger zaprosi svoga dečka Tylera i zajedno sa ekipom iz prvog dela, kreću na put u Provincetown, na godišnje okupljanje “mekanih meda” i njihovih “mečkica”. 26, 2019 /PRNewswire/ -- A proposal to build a Disney-like theme park in the Maya Biosphere Reserve in northern …. That original was split between charms and minuses, suffering primarily from careless scripting. angielski - Pytania z angielskiego - for - odpowiedzi eksperta: Pytania z angielskiego nt for. Rather than putting two gym junkies together who can't act and are really only there for the numerous sex scenes in GLBT films, this film focuses on character, on plot, on issues such as weight, desire, fidelity, trust. Download 2012 BearCity 2 The Proposal (USA) torrent or any other torrent from the Video Movies. BearCity is a hirsute “Sex and the City,” following the funny, romantic, and occasionally dramatic adventures of a group of bears and cubs in New York City. Free watching The Proposal - 2019, download The Proposal - 2019, watch The Proposal - 2019 with HD streaming. BearCity 2: The Proposal (tj. The sequel, BearCity 2 follows our familiar characters and a few new ones as they head to Provincetown, MA for Bear Week! 欲望熊市2 求婚记 BearCity 2: The Proposal在线观看:.